<?xml version="1.0" standalone="no"?>
<!DOCTYPE svg PUBLIC "-//W3C//DTD SVG 1.1//EN" "http://www.w3.org/Graphics/SVG/1.1/DTD/svg11.dtd" >
<svg xmlns="http://www.w3.org/2000/svg">
<metadata>
This is a custom SVG font generated by IcoMoon.
<iconset grid="16"></iconset>
</metadata>
<defs>
<font id="ellucian" horiz-adv-x="512" >
<font-face units-per-em="512" ascent="480" descent="-32" />
<missing-glyph horiz-adv-x="512" />
<glyph unicode="&#xe000;" d="M 512.00,224.00c0.00-141.44-114.56-256.00-256.00-256.00S0.00,82.56,0.00,224.00S 114.56,480.00, 256.00,480.00S 512.00,365.44, 512.00,224.00 M 418.88,299.52
	c-1.28,3.20-5.761,9.92-9.921,14.40L 399.68,324.16c-4.161,4.48-10.24,9.28-13.44,10.56s-13.44-6.08-17.60-10.56L 196.80,139.84c-4.16-4.48-11.20-4.48-15.68,0.00
	l-61.76,65.60c-4.16,4.80-10.24,9.60-13.44,10.879c-3.20,1.28-13.44-6.079-17.60-10.879l-9.60-9.921c-4.16-4.80-8.64-11.20-9.92-14.72
	c-1.28-3.20, 5.76-14.40, 9.92-18.88L 173.44,60.48c 4.16-4.48, 10.24-9.28, 13.44-10.561c 3.20-1.279, 13.439,6.08, 17.92,10.561l 9.28,10.239
	c 4.16,4.48, 8.00,8.961, 8.639,9.28c 0.321,0.64, 4.80,5.76, 8.961,10.56L 408.96,280.64C 413.12,285.12, 419.84,296.32, 418.88,299.52"  />
<glyph unicode="&#xe001;" d="M 512.00,224.00c0.00-141.385-114.615-256.00-256.00-256.00C 114.615-32.00,0.00,82.615,0.00,224.00C0.00,365.385, 114.615,480.00, 256.00,480.00
	C 397.385,480.00, 512.00,365.385, 512.00,224.00z M 309.953,329.17c 0.358,51.572-22.321,51.572-43.91,51.929c-4.75,0.00-17.552-0.357-21.196-0.357
	c-20.482,0.00-42.804,0.357-42.804-51.572c0.00-2.928, 21.589-129.463, 21.589-129.463c 5.483-24.144, 11.34-25.965, 32.911-25.965
	c 21.554,0.00, 24.483,0.75, 31.839,25.965L 309.953,329.17z M 291.668,132.778c0.00,9.856-8.071,17.929-17.927,17.929l-35.859,0.00 
	c-9.856,0.00-17.91-8.073-17.91-17.929l0.00-36.214 c0.00-9.855, 8.054-17.929, 17.91-17.929l 35.859,0.00 c 9.856,0.00, 17.927,8.074, 17.927,17.929
	L 291.668,132.778 z"  />
<glyph unicode="&#xe002;" d="M 256.00,375.04c 35.52,0.00, 40.00,0.00, 40.00-26.56c0.00-44.16-4.48-44.16-40.00-44.16c-35.20,0.00-40.00,0.00-40.00,44.16
		C 216.00,370.56, 220.48,375.04, 256.00,375.04M 216.00,249.60c0.00,16.00, 10.88,29.44, 39.36,29.44c 28.48,0.00, 39.36-14.08, 39.36-29.44s 0.96-69.76, 0.96-123.20
		c0.00-53.44, 8.64-53.44-36.80-53.44c-42.24,0.00-42.24,0.00-42.24,51.20C 216.32,124.16, 216.00,233.60, 216.00,249.60zM0.00,224.00A256.00,256.00 180.00 1 1 512.00,224A256.00,256.00 180.00 1 1 0.00,224z"  />
<glyph unicode="&#xe003;" d="M 255.04,47.68c-29.76,0.00-33.28,0.00-33.28,22.72c0.00,37.44, 3.84,37.44, 33.28,37.44c 29.76,0.00, 33.60,0.00, 33.60-37.44
		C 288.64,51.84, 284.80,47.68, 255.04,47.68M 289.60,149.44c-7.04-20.80-10.24-21.44-31.68-21.44c-21.76,0.00-27.52,1.60-33.279,21.44c0.00,0.00-21.76,105.279-21.76,107.84
		c0.00,43.20, 22.40,43.52, 42.879,42.879c 4.16-0.32, 16.64,0.00, 21.44,0.00c 21.76-0.32, 44.48-0.32, 44.16-43.20L 289.60,149.44zM 503.04,63.36L 294.40,421.12c-21.12,36.16-55.68,35.52-76.80-0.64l-208.64-356.80C-12.16,27.20, 5.12,0.00, 47.36,0.00l 417.28,0.00 
	C 506.88,0.00, 524.16,26.88, 503.04,63.36z"  />
<glyph unicode="&#xe004;" d="M 256.00,480.00c 141.385,0.00, 256.00-114.615, 256.00-256.00S 397.385-32.00, 256.00-32.00S0.00,82.615,0.00,224.00S 114.615,480.00, 256.00,480.00z M 251.52,387.52
	C 221.44,387.52, 196.80,378.88, 178.24,361.60c-10.24-9.60-16.96-20.48-22.72-32.00c-15.36-30.40, 8.00-33.92, 8.00-33.92l 13.44-3.52c0.00,0.00, 19.84-8.64, 29.76,22.40
	c 7.04,11.84, 7.04,11.84, 11.84,16.00c 9.60,8.32, 21.44,12.80, 35.521,12.80c 14.72,0.00, 26.239-3.84, 34.879-12.16c 8.64-8.00, 12.80-17.28, 12.80-28.80
	c0.00-8.32-2.56-15.04-7.36-21.76c-3.20-4.16-12.80-12.16-29.12-26.24c-16.00-13.76-26.88-24.00-32.00-34.88c-5.44-11.20-8.321-20.80-8.321-38.079c0.00-0.64,0.00-8.00,0.00-16.00
	c0.00-21.44, 17.60-21.44, 17.60-21.44s 10.88,0.00, 25.28,0.00s 14.40-1.60, 14.40,18.88C 281.92,176.00, 281.92,191.04, 283.52,194.56c 2.88,6.40, 6.08,12.16, 17.60,22.40
	C 323.84,236.80, 338.56,252.48, 345.60,263.68c 6.72,11.52, 10.24,23.679, 10.24,36.479c0.00,23.36-9.28,43.52-28.16,61.12
	C 308.80,378.88, 283.52,387.52, 251.52,387.52z M 286.232,95.078c0.00,8.373-6.789,15.162-15.162,15.162L 240.443,110.24 
	c-8.374,0.00-15.162-6.789-15.162-15.162l0.00-30.628 c0.00-8.373, 6.788-15.162, 15.162-15.162l 30.627,0.00 c 8.373,0.00, 15.162,6.789, 15.162,15.162
	L 286.232,95.078 z"  />
<glyph unicode="&#xe005;" d="M 256.032,448.00C 379.52,448.00, 480.00,347.488, 480.00,223.968C 480.00,100.48, 379.52,0.00, 256.032,0.00C 132.512,0.00, 32.00,100.48, 32.00,223.968
			C 32.00,347.488, 132.512,448.00, 256.032,448.00 M 256.032,480.00C 114.592,480.00,0.00,365.408,0.00,223.968C0.00,82.592, 114.592-32.00, 256.032-32.00C 397.376-32.00, 512.00,82.592, 512.00,223.968
			C 512.00,365.408, 397.376,480.00, 256.032,480.00L 256.032,480.00zM 254.624,394.688c-30.208,0.00-54.688-8.672-73.312-25.888C 171.04,359.328, 164.16,348.352, 158.432,336.96
				C 143.04,306.56, 166.496,302.816, 166.496,302.816l 13.504-3.488c0.00,0.00, 20.00-8.512, 29.696,22.496c 7.20,11.744, 7.20,11.744, 11.936,16.00
				C 231.104,346.24, 242.912,350.496, 256.992,350.496c 14.592,0.00, 26.176-3.872, 34.816-12.00c 8.64-8.032, 12.96-17.504, 12.96-28.80
				c0.00-8.192-2.528-15.072-7.328-21.856c-3.20-4.288-12.832-12.288-29.056-26.112C 252.224,248.00, 241.472,237.664, 236.064,226.688
				C 230.656,215.584, 228.00,205.856, 228.00,188.672c0.00-0.736, 0.032-7.968, 0.032-15.872c0.00-21.408, 17.472-21.408, 17.472-21.408s 11.008,0.00, 25.408,0.00
				s 14.40-1.60, 14.40,18.912c-0.32,12.80-0.352,28.064, 1.184,31.488c 2.848,6.24, 5.952,12.16, 17.632,22.336
				c 22.624,19.776, 37.376,35.392, 44.352,46.88c 6.88,11.456, 10.336,23.584, 10.336,36.416c0.00,23.264-9.44,43.616-28.256,61.056
				C 311.744,385.984, 286.432,394.688, 254.624,394.688zM 264.544,53.312c-36.064,0.00-36.064,0.00-36.064,32.00s 8.128,32.00, 36.064,32.00c 27.968,0.00, 27.968,0.00, 28.064-31.872
			C 292.704,65.504, 292.512,53.312, 264.544,53.312"  />
<glyph unicode="&#xe006;" d="M 502.976,384.672l-208.64-357.696c-21.088-36.416-55.616-35.68-76.768,0.672L 8.992,384.32C-12.128,420.672, 5.184,448.00, 47.36,448.00
		l 417.216,0.00 C 506.816,448.00, 524.128,421.056, 502.976,384.672z M 253.856,127.488c 30.24,0.00, 34.112,3.968, 34.112,22.912c0.00,37.984-3.872,37.984-34.112,37.984
		c-30.176,0.00-33.952,0.00-33.952-37.984C 219.936,127.488, 223.68,127.488, 253.856,127.488 M 311.136,340.256c 0.32,43.488-22.752,43.488-44.80,43.84
		C 261.408,384.128, 248.448,383.616, 244.576,383.776C 223.616,384.416, 200.864,384.096, 200.864,340.256c0.00-2.592, 21.984-109.568, 21.984-109.568
		c 5.92-20.192, 11.904-21.888, 33.824-21.888s 25.152,0.672, 32.416,21.888L 311.136,340.256z"  />
<glyph unicode="&#xe007;" d="M 255.999,479.99C 114.594,479.99,0.00,365.394,0.00,223.952c0.00-141.395, 114.594-255.962, 255.999-255.962
	C 397.374-32.01, 512.00,82.557, 512.00,223.952C 512.00,365.394, 397.374,479.99, 255.999,479.99z M 255.999,447.99
	c 117.901,0.00, 214.781-91.598, 223.323-207.388c-137.222,51.524-326.046-83.629-446.434-35.943c-0.545,6.36-0.827,12.794-0.827,19.292
	C 32.062,347.487, 132.516,447.99, 255.999,447.99z"  />
<glyph unicode="&#xe008;" d="M 511.857,224.378c0.00-141.355-114.683-255.977-256.007-255.977c-141.449,0.00-255.993,114.621-255.993,255.977
		c0.00,141.418, 114.544,256.023, 255.993,256.023C 397.174,480.401, 511.857,365.795, 511.857,224.378z M 369.612,104.533L 349.925,104.533 
		c 1.375,0.00, 2.125,13.588, 2.125,21.399c0.00,40.934-19.251,76.234-48.051,95.086l0.00,24.455 c 28.80,18.655, 48.051,53.852, 48.051,94.754
		c0.00,7.875-0.75,20.306-2.125,20.306l 19.686,0.00 c 7.875,0.00, 14.25,6.937, 14.25,16.00c0.00,9.031-6.375,16.00-14.25,16.00L 142.071,392.533 
		c-7.859,0.00-14.217-6.969-14.217-16.00c0.00-9.063, 6.358-16.00, 14.217-16.00l 20.422,0.00 c-1.375,0.00-2.141-13.134-2.141-20.978
		c0.00-40.725, 19.381-75.469, 47.647-93.986l0.00-24.74 c-28.267-18.818-47.647-53.818-47.647-94.585c0.00-7.781, 0.766-21.713, 2.141-21.713
		l-20.422,0.00 c-7.859,0.00-14.217-6.937-14.217-16.00c0.00-9.061, 6.358-16.00, 14.217-16.00l 227.54,0.00 c 7.875,0.00, 14.25,6.939, 14.25,16.00
		C 383.861,97.596, 377.486,104.533, 369.612,104.533zM 326.957,113.333c0.00,11.25-24.687,30.156-33.593,41.311c-4.703,5.906-14.828,13.938-23.359,22.905
	c-7.655,8.00-5.75,10.688-13.562,10.39c-7.782-0.234-10.875-4.39-17.625-12.14c-8.125-9.342-15.907-18.655-19.828-22.843
	c-7.188-7.625-33.046-28.217-33.046-39.435l0.00,0.00c0.00-11.188, 7.875-9.188, 17.625-9.188l 105.763,0.00 
	C 319.052,104.333, 326.957,102.147, 326.957,113.333L 326.957,113.333zM 326.957,320.265c0.00-11.202-24.687-29.624-33.593-40.811c-4.703-5.875-14.828-13.703-23.359-22.687
	c-7.655-8.015-5.75-10.562-13.562-10.281c-7.782,0.281-10.875,4.469-17.625,12.234c-8.125,9.359-15.907,18.701-19.828,22.859
	c-7.188,7.61-33.046,27.28-33.046,38.499l0.00,0.00c0.00,11.187, 7.875,8.25, 17.625,8.25l 105.763,0.00 
	C 319.052,328.327, 326.957,331.452, 326.957,320.265L 326.957,320.265z"  />
<glyph unicode="&#xe009;" d="M 502.976,384.672l-208.64-357.696c-21.088-36.416-55.616-35.68-76.768,0.672L 8.992,384.32C-12.128,420.672, 5.184,448.00, 47.36,448.00
		l 417.216,0.00 C 506.816,448.00, 524.128,421.056, 502.976,384.672z"  />
<glyph unicode="&#xe010;" d="M 503.04,63.36L 294.40,421.12c-21.12,36.16-55.68,35.52-76.80-0.64l-208.64-356.80C-12.16,27.20, 5.12,0.00, 47.36,0.00l 417.28,0.00 
	C 506.88,0.00, 524.16,26.88, 503.04,63.36z"  />
<glyph unicode="&#xe011;" d="M 256.00,480.00C 114.576,480.00,0.00,365.387,0.00,224.00s 114.576-256.00, 256.00-256.00c 141.345,0.00, 256.00,114.613, 256.00,256.00S 397.345,480.00, 256.00,480.00z"  />
<glyph unicode="&#xe012;" d="M 270.656,220.00c 44.448,8.096, 78.592,51.904, 78.592,105.152C 349.248,384.16, 307.456,432.00, 256.00,432.00
	c-51.488,0.00-93.248-47.84-93.248-106.848c0.00-53.76, 34.752-97.824, 79.872-105.312c-74.336-8.096-136.96-85.92-162.624-178.56
	C 129.824,25.568, 184.64,16.00, 256.00,16.00c 67.488,0.00, 129.376,13.12, 176.00,25.248C 407.68,135.296, 345.376,210.016, 270.656,220.00z"  />
<glyph unicode="&#xe013;" d="M 398.524,229.133L 366.10,229.133 L 366.10,342.339 C 366.10,400.706, 316.74,447.999, 255.741,447.999C 194.726,447.999, 145.366,400.706, 145.366,342.339
		L 145.366,229.133 l-32.233,0.00 c-9.459,0.00-17.234-7.564-17.234-16.604l0.00-196.558 C 95.90,6.90, 103.675,0.00, 113.134,0.00L 398.524,0.00 
		c 9.459,0.00, 17.043,6.90, 17.043,15.971L 415.567,212.53 C 415.567,221.57, 407.983,229.133, 398.524,229.133z M 171.966,340.431c0.00,44.322, 37.674,80.262, 84.00,80.262
		c 46.327,0.00, 84.00-35.94, 84.00-80.262L 339.967,229.133 L 171.966,229.133 L 171.966,340.431 z"  />
<glyph unicode="&#xe014;" d="M 224.00,280.896C 224.00,267.20, 212.80,256.00, 199.104,256.00L 88.896,256.00 C 75.20,256.00, 64.00,267.20, 64.00,280.896L 64.00,391.104 C 64.00,404.80, 75.20,416.00, 88.896,416.00l 110.208,0.00 
						C 212.80,416.00, 224.00,404.80, 224.00,391.104L 224.00,280.896 zM 224.00,56.864C 224.00,43.20, 212.80,32.00, 199.104,32.00L 88.896,32.00 C 75.20,32.00, 64.00,43.20, 64.00,56.864L 64.00,167.136 C 64.00,180.80, 75.20,192.00, 88.896,192.00l 110.208,0.00 
						C 212.80,192.00, 224.00,180.80, 224.00,167.136L 224.00,56.864 zM 448.00,56.864C 448.00,43.20, 436.80,32.00, 423.136,32.00L 312.864,32.00 C 299.20,32.00, 288.00,43.20, 288.00,56.864L 288.00,167.136 C 288.00,180.80, 299.20,192.00, 312.864,192.00
						l 110.24,0.00 C 436.80,192.00, 448.00,180.80, 448.00,167.136L 448.00,56.864 zM 448.00,280.896C 448.00,267.20, 436.80,256.00, 423.136,256.00L 312.864,256.00 C 299.20,256.00, 288.00,267.20, 288.00,280.896L 288.00,391.104 C 288.00,404.80, 299.20,416.00, 312.864,416.00l 110.24,0.00 
						C 436.80,416.00, 448.00,404.80, 448.00,391.104L 448.00,280.896 z"  />
<glyph unicode="&#xe015;" d="M 259.205,321.429L 78.715,161.792l0.00-140.027 c0.00-17.605, 16.731-34.475, 33.20-34.475l 84.965,0.00 L 196.88,140.213 l 118.128,0.00 l0.00-152.923 l 98.896,0.00 
	c 16.533,0.00, 19.264,22.181, 19.264,39.819L 433.168,162.795 L 259.205,321.429zM 504.971,261.003L 387.733,358.379L 387.733,460.80 l-52.80,0.00 l0.00-58.325 L 273.589,453.296C 264.987,460.613, 257.872,460.80, 257.872,460.80l-0.133,0.00 
	c-0.064,0.00-7.20-0.123-15.797-7.435L 6.917,257.973c-8.635-7.317-9.365-18.629-1.568-26.981l 26.768-27.851c 7.664-8.283, 20.997-8.683, 29.435-1.20
	l 189.392,168.56c 8.464,7.451, 6.565,7.616, 14.933,0.069L 450.40,202.48c 8.368-7.616, 21.701-6.912, 29.365,1.339l 26.752,28.629
	C 514.315,240.763, 513.568,253.557, 504.971,261.003z"  />
<glyph unicode="&#xe016;" d="M 426.629,480.00L 85.285,480.00 C 38.389,480.00-0.059,441.595-0.059,394.667l0.00-341.333 c0.00-46.928, 38.453-85.333, 85.344-85.333l 341.344,0.00 
		c 46.928,0.00, 85.312,38.405, 85.312,85.333L 511.941,394.667 C 511.941,441.595, 473.557,480.00, 426.629,480.00z M 452.203,181.349L 299.077,181.349 l0.00-106.667 l-0.213,0.00 l0.00-45.616 l-85.92,0.016L 212.944,181.333 
		l-153.269-0.016l0.00,85.333 l 47.504,0.00 l0.00,0.053 l 105.803,0.00 L 212.981,418.949 l 85.883,0.00 l0.00-45.632 l 0.213,0.00 l0.00-106.613 l 106.699,0.00 L 405.776,266.667 l 46.427,0.00 L 452.203,181.349 z"  />
<glyph unicode="&#xe017;" d="M 511.467,267.733L 299.733,267.733L 299.733,479.467L 213.333,479.467L 213.333,267.733L -0.533,267.733L -0.533,181.333L 213.333,181.333L 213.333-32.533L 299.733-32.533L 299.733,181.333L 511.467,181.333 z"  />
<glyph unicode="&#xe018;" d="M 256.00,480.00C 114.576,480.00,0.00,365.387,0.00,224.00s 114.576-256.00, 256.00-256.00c 141.345,0.00, 256.00,114.613, 256.00,256.00S 397.345,480.00, 256.00,480.00z
	 M 412.384,270.155l0.00-92.347 l-312.811,0.037L 99.573,270.192 L 412.384,270.155z"  />
<glyph unicode="&#xe019;" d="M 426.645,480.00L 85.355,480.00 C 38.421,480.00,0.00,441.563,0.00,394.667l0.00-341.333 c0.00-46.965, 38.421-85.333, 85.355-85.333l 341.285,0.00 
	C 473.648-32.00, 512.00,6.368, 512.00,53.333L 512.00,394.667 C 512.00,441.563, 473.648,480.00, 426.645,480.00z M 213.856,181.371L 107.253,181.371 l0.00,85.333 l 106.608,0.00 l 85.285,0.00 l 106.608,0.00 l0.00-85.333 L 299.141,181.371 
	L 213.856,181.371 z"  />
<glyph unicode="&#xe020;" d="M0.00,224.00A256.00,256.00 180.00 1 1 512.00,224A256.00,256.00 180.00 1 1 0.00,224zM 416.00,121.60L 358.40,64.00L 256.00,166.40L 153.60,64.00L 96.00,121.60L 198.40,224.00L 96.00,326.40L 153.60,384.00L 256.00,281.60L 358.40,384.00L 416.00,326.40L 313.60,224.00 z"  />
<glyph unicode="&#xe021;" d="M 496.912,81.76L 354.64,224.043l 142.277,142.208c 19.232,19.307, 20.123,49.531, 1.931,67.76l-32.821,32.933
	c-18.267,18.155-48.565,17.227-67.797-1.856L 255.952,322.731L 113.749,464.939C 94.512,484.171, 64.293,485.061, 46.027,466.869L 13.131,434.048
	C-5.067,415.781-4.176,385.483, 14.987,366.245l 142.277-142.208L 15.061,81.76c-19.232-19.157-20.197-49.531-2.005-67.797l 32.971-32.821
	c 18.192-18.192, 48.416-17.339, 67.723,1.931l 142.203,142.245l 142.352-142.283c 19.157-19.232, 49.531-20.16, 67.723-1.931l 32.896,32.933
	C 517.109,32.192, 516.219,62.453, 496.912,81.76"  />
<glyph unicode="&#xe022;" d="M 256.037,51.179c-94.123,0.00-170.421,76.299-170.421,170.421c0.00,94.123, 76.299,170.459, 170.421,170.459
		c 38.336,0.00, 73.531-12.805, 101.984-34.181L 268.619,281.429l 240.208-37.216L 499.84,479.221L 421.669,412.357C 377.339,450.955, 319.461,474.432, 256.037,474.432
		C 116.389,474.432, 3.173,361.253, 3.173,221.605c0.00-139.648, 113.216-252.827, 252.864-252.827c 108.048,0.00, 200.00,67.877, 236.165,163.237l-79.147,23.248
		C 387.152,94.085, 326.571,51.179, 256.037,51.179"  />
<glyph unicode="&#xe023;" d="M 90.807,354.423l0.00-312.255 c0.00-40.912, 33.721-74.158, 75.362-74.158l 179.531,0.00 
			c 41.599,0.00, 75.405,33.246, 75.405,74.158L 421.105,354.423 L 90.807,354.423 z M 175.616,26.753c0.00-6.124-5.634-11.165-12.539-11.165l-8.324,0.00 
			c-6.947,0.00-12.539,5.041-12.539,11.165L 142.213,314.094 c0.00,6.124, 5.591,11.165, 12.539,11.165l 8.324,0.00 c 6.905,0.00, 12.539-5.041, 12.539-11.165
			L 175.616,26.753 z M 272.668,26.753c0.00-6.124-5.655-11.165-12.539-11.165l-8.388,0.00 c-6.926,0.00-12.518,5.041-12.518,11.165L 239.223,314.094 
			c0.00,6.124, 5.591,11.165, 12.518,11.165l 8.388,0.00 c 6.884,0.00, 12.539-5.041, 12.539-11.165L 272.668,26.753 z M 369.698,26.753
			c0.00-6.124-5.591-11.165-12.539-11.165l-8.367,0.00 c-6.905,0.00-12.581,5.041-12.581,11.165L 336.211,314.094 c0.00,6.124, 5.677,11.165, 12.581,11.165
			l 8.324,0.00 c 6.947,0.00, 12.539-5.041, 12.539-11.165l0.00-287.342 L 369.698,26.753 zM 447.899,388.794c0.00,27.33-22.494,49.453-50.178,49.453L 114.149,438.246 c-27.726,0.00-50.22-22.164-50.22-49.453l0.00,0.00
			L 447.899,388.794 L 447.899,388.794zM 317.169,464.285c0.00,8.707-7.159,15.748-16.013,15.748L 210.756,480.034 c-8.811,0.00-16.013-7.041-16.013-15.748
			l0.00-8.874 l 122.427,0.00 L 317.17,464.285 z"  />
<glyph unicode="&#xe024;" d="M 256.047,181.375l 228.453,201.719c-1.531,0.219-2.906,0.906-4.50,0.906L 32.00,384.00 c-0.985,0.00-1.812-0.469-2.781-0.563
		L 256.047,181.375zM 512.00,352.00c0.00,3.812-0.938,7.344-2.188,10.734L 348.50,220.313l 159.25-139.344C 510.219,85.50, 512.00,90.469, 512.00,96.00L 512.00,352.00 zM 2.50,364.375C 0.906,360.563,0.00,356.39,0.00,352.00l0.00-256.00 c0.00-4.687, 1.109-9.031, 2.906-13.031l 160.781,137.828L 2.50,364.375zM 324.313,198.969L 255.953,138.625L 187.781,199.328L 30.297,64.344C 30.891,64.313, 31.406,64.00, 32.00,64.00l 446.563,0.00 L 324.313,198.969z
		"  />
<glyph unicode="&#xe025;" d="M 512.00,382.791c-18.838-8.354-39.082-14.001-60.33-16.541c 21.686,13.00, 38.343,33.585, 46.186,58.115
	c-20.298-12.039-42.778-20.781-66.705-25.49c-19.16,20.415-46.46,33.17-76.673,33.17c-58.011,0.00-105.044-47.028-105.044-105.039
	c0.00-8.233, 0.929-16.25, 2.72-23.939c-87.30,4.382-164.701,46.20-216.509,109.753c-9.042-15.514-14.223-33.558-14.223-52.809
	c0.00-36.444, 18.544-68.596, 46.73-87.433c-17.219,0.546-33.416,5.271-47.577,13.139c-0.01-0.438-0.01-0.878-0.01-1.321
	c0.00-50.894, 36.209-93.348, 84.26-103.00c-8.813-2.40-18.094-3.686-27.674-3.686c-6.769,0.00-13.349,0.661-19.765,1.886
	c 13.368-41.73, 52.16-72.103, 98.126-72.948c-35.95-28.175-81.243-44.967-130.458-44.967c-8.479,0.00-16.84,0.497-25.058,1.47
	c 46.486-29.805, 101.70-47.196, 161.021-47.196c 193.211,0.00, 298.868,160.061, 298.868,298.871c0.00,4.554-0.103,9.085-0.305,13.59
	C 480.11,343.227, 497.917,361.727, 512.00,382.791z"  />
<glyph unicode="&#xe026;" d="M 287.935-32.00L 192.00-32.00 L 192.00,224.00 l-64.00,0.00 l0.00,88.225 l 64.00,0.029l-0.104,51.976C 191.896,436.206, 211.413,480.00, 296.195,480.00l 70.588,0.00 l0.00-88.242 l-44.115,0.00 
	c-33.016,0.00-34.603-12.328-34.603-35.342l-0.131-44.162l 79.345,0.00 l-9.352-88.225L 288.00,224.00L 287.935-32.00z"  />
<glyph unicode="&#xe027;" d="M 495.579,89.584c-15.074,23.419-65.427,37.855-115.14,58.707c-49.712,20.852-61.579,27.909-61.579,27.909
	L 318.541,224.00c0.00,0.00, 18.602,14.436, 24.374,59.348c 11.546-3.529, 24.054,17.323, 24.695,28.551c 0.642,10.587-1.603,39.779-15.715,36.892
	c 2.886,22.135, 5.132,42.025, 3.848,52.291C 351.896,439.579, 314.05,480.00, 256.00,480.00C 197.949,480.00, 160.104,439.579, 156.255,401.083
	c-0.962-10.587, 1.283-30.476, 4.17-52.291c-14.433,2.887-16.678-26.306-16.036-36.892c 0.642-10.907, 12.829-31.759, 24.696-28.551
	C 174.857,238.436, 193.459,224.00, 193.459,224.00l-0.321-47.799c0.00,0.00-11.867-7.057-61.578-27.909
	C 81.847,127.438, 31.494,113.003, 16.42,89.584C 2.95,68.732, 7.119-32.00, 7.119-32.00L 256.00-32.00 l 249.201,0.00 
	C 505.201-32.00, 509.05,68.732, 495.579,89.584z"  />
<glyph unicode="&#xe028;" d="M 267.548,96.687c-35.626,14.844-44.071,20.00-44.071,20.00l-0.344,34.125c0.00,0.00, 13.356,10.25, 17.485,42.375
		c 8.351-2.437, 17.109,12.422, 17.579,20.266c 0.469,7.531-1.157,28.453-11.323,26.344c 2.095,15.75, 3.566,29.906, 2.815,37.406
		c-2.628,27.422-29.621,56.344-71.19,56.344s-68.563-28.922-71.222-56.344c-0.75-7.50, 0.751-21.656, 2.815-37.406
		c-10.166,2.109-11.792-18.812-11.354-26.344c 0.532-7.844, 9.227-22.703, 17.61-20.266c 4.129-32.125, 17.516-42.375, 17.516-42.375
		l-0.375-34.125c0.00,0.00-8.445-5.156-44.041-20.00c-35.627-14.812-71.628-25.188-82.326-41.875C-2.482,39.875, 0.396-32.00, 0.396-32.00
		l 178.101,0.00 l 178.07,0.00 c0.00,0.00, 2.878,71.875-6.694,86.812C 339.145,71.50, 303.143,81.875, 267.548,96.687zM 192.166,480.00L 192.166,384.00L 224.196,384.00L 224.196,448.00L 479.963,448.00L 479.963,288.172L 448.902,288.656L 437.987,288.812L 429.228,282.297L 351.844,224.516L 351.844,256.656L 351.844,288.906L 319.565,288.656L 288.255,288.422L 288.255,256.422L 319.815,256.656L 319.815,160.656L 448.402,256.656L 511.991,255.687L 511.991,480.00 	z"  />
<glyph unicode="&#xe029;" d="M 416.00,417.846l0.00-32.078 L 64.00,289.486L0.00,321.58l0.00-192.563 l 64.00,32.094l 38.00-10.406l-10.437-41.094
	c-6.531-25.719, 9.00-51.969, 34.656-58.531l 94.00-24.00c 3.875-0.969, 7.844-1.469, 11.812-1.469c 22.00,0.00, 41.156,14.875, 46.563,36.219
	l 9.656,37.969L 416.00,64.83l0.00-32.094 l 96.00-32.75L 512.00,447.971 L 416.00,417.846z M 247.594,69.737c-2.094-8.25-11.062-13.75-19.469-11.563
	l-94.00,24.00c-8.563,2.188-13.75,10.938-11.563,19.531l 10.313,40.594l 124.50-34.094L 247.594,69.737z M 416.00,225.299L 64.00,225.299 l0.00,32.094 
	l 352.00,96.281L 416.00,225.299 z M 480.00,225.299l-32.00,0.00 L 448.00,385.767 l 32.00,0.00 L 480.00,225.299 z"  />
<glyph unicode="&#xe030;" d="M 333.25,480.00L 32.00,480.00 l0.00-512.00 l 448.00,0.00 L 480.00,333.25 L 333.25,480.00z M 416.00,32.00L 96.00,32.00 L 96.00,416.00 l 64.00,0.00 l0.00-288.00 l 64.00,96.00l 64.00-96.00L 288.00,416.00 l 18.75,0.00 L 416.00,306.75L 416.00,32.00 z"  />
<glyph unicode="&#xe031;" d="M 175.733,288.00L 239.733,288.00L 239.733,224.00L 175.733,224.00zM 271.733,288.00L 335.733,288.00L 335.733,224.00L 271.733,224.00zM 367.733,288.00L 431.733,288.00L 431.733,224.00L 367.733,224.00zM 79.733,192.00L 143.733,192.00L 143.733,128.00L 79.733,128.00zM 175.733,192.00L 239.733,192.00L 239.733,128.00L 175.733,128.00zM 271.733,192.00L 335.733,192.00L 335.733,128.00L 271.733,128.00zM 367.733,192.00L 431.733,192.00L 431.733,128.00L 367.733,128.00zM 79.733,96.00L 143.733,96.00L 143.733,32.00L 79.733,32.00zM 175.733,96.00L 239.733,96.00L 239.733,32.00L 175.733,32.00zM 271.733,96.00L 335.733,96.00L 335.733,32.00L 271.733,32.00zM 431.733,416.00L 431.733,480.00 l-96.00,0.00 l0.00-64.00 l-160.00,0.00 L 175.733,480.00 l-96.00,0.00 l0.00-64.00 l-64.00,0.00 l0.00-448.00 l 480.00,0.00 L 495.733,416.00 L 431.733,416.00 z M 367.733,448.00l 32.00,0.00 l0.00-64.00 l-32.00,0.00 L 367.733,448.00 z M 111.733,448.00l 32.00,0.00 l0.00-64.00 l-32.00,0.00 L 111.733,448.00 z
		 M 463.733,0.00l-416.00,0.00 L 47.733,320.00 l 416.00,0.00 L 463.733,0.00 z"  />
<glyph unicode="&#xe032;" d="M 461.61,331.00C 443.522,355.067, 304.777,470.966, 304.777,470.966S 293.322,480.00, 273.197,480.00
			c-34.111,0.00-170.558,0.00-170.558,0.00C 68.528,480.00, 34.417,445.867, 34.417,411.733L 34.133,39.267C 34.133,5.133, 68.528-32.00, 102.639-32.00l 307.004,0.00 
			C 443.755-32.00, 477.867,2.133, 477.584,39.267c0.00,0.00, 0.283,213.80, 0.283,235.933C 477.867,309.333, 477.867,309.333, 461.61,331.00z M 409.077,138.667L 102.357,138.667 l0.00,34.133 
			l 307.004,0.00 L 409.077,138.667z M 409.077,70.40L 102.357,70.40 l0.00,34.133 l 307.004,0.00 L 409.077,70.40z M 409.361,206.933L 102.357,206.933 l0.00,34.133 l 307.004,0.00 L 409.361,206.933 z M 426.383,273.933
			c-12.842,0.00-75.851,0.00-99.137,0.00c-62.877,0.00-62.877-1.733-62.877,58.267c0.00,17.40,0.00,84.634,0.00,96.00c0.00,11.333, 11.476,15.40, 26.883,0.00
			c 15.407-15.434, 111.679-96.00, 135.131-119.467C 447.086,288.033, 436.11,273.933, 426.383,273.933z"  />
<glyph unicode="&#xe033;" d="M 458.417,328.00C 437.29,349.267, 302.758,467.967, 302.758,467.967S 287.252,480.00, 262.653,480.00
			c-24.582,0.00-154.551,0.00-154.551,0.00C 67.468,480.00, 34.141,446.40, 34.141,405.333l0.00-362.60 C 34.141,1.633, 67.468-32.00, 108.102-32.00l 295.795,0.00 
			c 40.667,0.00, 73.928,33.633, 73.928,74.733c0.00,0.00,0.00,219.667,0.00,241.80C 477.825,306.667, 479.544,306.667, 458.417,328.00z M 262.653,425.20
			c0.00,11.333, 11.39,15.40, 26.682,0.00c 15.291-15.434, 110.842-96.00, 134.118-119.467c 20.548-20.70, 9.655-34.80,0.00-34.80
			c-12.746,0.00-75.283,0.00-98.394,0.00c-62.406,0.00-62.406-1.733-62.406,58.267C 262.653,346.60, 262.653,413.834, 262.653,425.20z
			 M 294.972-23.267l-108.165,109.067L 244.204,143.733l 51.958-56.933l 139.854,117.067l 41.791-42.867L 294.972-23.267z"  />
<glyph unicode="&#xe034;" d="M 480.00,314.942L 378.875,416.067L 201.938,239.114L 303.062,138.004 zM 263.469,98.629L 214.531,147.629L 165.563,196.52L 164.75,146.817L 163.938,97.035L 213.687,97.879 
	zM 480.00,256.067L 480.00,224.067L 480.00,64.067L 32.00,64.067L 32.00,224.067L 160.00,224.067L 160.00,256.067L0.00,256.067L0.00,32.067L 512.00,32.067L 512.00,256.067 z"  />
<glyph unicode="&#xe035;" d="M 396.513,368.425L 396.513,416.368 L 319.725,416.368 l0.00-47.94 L 191.709,368.428 L 191.709,416.368 L 114.922,416.368 l0.00-47.94 L 63.717,368.428 L 63.717,32.368 l 384.00,0.00 L 447.717,368.425 L 396.513,368.425 z
					 M 345.313,392.425l 25.616,0.00 l0.00-48.00 l-25.616,0.00 L 345.313,392.425 z M 140.506,392.425l 25.616,0.00 l0.00-48.00 l-25.616,0.00 L 140.506,392.425 z M 422.129,56.425L 89.301,56.425 l0.00,240.00 L 422.129,296.425 L 422.129,56.425 zM 152.73,247.292L 181.93,247.292L 181.93,217.692L 152.73,217.692zM 241.13,247.292L 270.73,247.292L 270.73,217.692L 241.13,217.692zM 329.53,247.292L 359.13,247.292L 359.13,217.692L 329.53,217.692zM 152.73,188.092L 181.93,188.092L 181.93,158.892L 152.73,158.892zM 241.13,188.092L 270.73,188.092L 270.73,158.892L 241.13,158.892zM 329.53,188.092L 359.13,188.092L 359.13,158.892L 329.53,158.892zM 152.73,129.292L 181.93,129.292L 181.93,99.692L 152.73,99.692zM 241.13,129.292L 270.73,129.292L 270.73,99.692L 241.13,99.692zM 329.53,129.292L 359.13,129.292L 359.13,99.692L 329.53,99.692z"  />
<glyph unicode="&#xe036;" d="M 256.00,346.176L 432.00,346.176L 432.00,311.264L 256.00,311.264zM 256.00,416.00L 432.00,416.00L 432.00,381.088L 256.00,381.088zM 80.00,416.00L 185.632,416.00L 185.632,311.264L 80.00,311.264zM 256.00,206.56L 432.00,206.56L 432.00,171.648L 256.00,171.648zM 256.00,276.352L 432.00,276.352L 432.00,241.44L 256.00,241.44zM 80.00,276.352L 185.632,276.352L 185.632,171.616L 80.00,171.616zM 256.00,136.704L 432.00,136.704L 432.00,101.792L 256.00,101.792zM 256.00,66.912L 432.00,66.912L 432.00,32.00L 256.00,32.00zM 80.00,136.704L 185.632,136.704L 185.632,32.00L 80.00,32.00z"  />
<glyph unicode="&#xe037;" d="M 64.00,416.00l0.00-384.00 l 384.00,0.00 l0.00,15.552 L 448.00,416.00 L 64.00,416.00 z M 95.104,384.896l 321.792,0.00 l0.00-321.792 L 95.104,63.104 L 95.104,384.896 zM 128.64,358.656L 380.448,358.656L 380.448,296.448L 128.64,296.448zM 128.64,192.064L 219.072,192.064L 219.072,156.512L 128.64,156.512zM 128.64,260.672L 219.072,260.672L 219.072,225.12L 128.64,225.12zM 128.64,127.808L 219.072,127.808L 219.072,92.224L 128.64,92.224zM 290.016,192.064L 380.416,192.064L 380.416,156.512L 290.016,156.512zM 290.016,260.672L 380.416,260.672L 380.416,225.12L 290.016,225.12zM 290.016,127.808L 380.416,127.808L 380.416,92.224L 290.016,92.224z"  />
<glyph unicode="&#xe038;" d="M 384.00,416.00L 320.00,416.00 C 320.00,451.344, 291.344,480.00, 256.00,480.00S 192.00,451.344, 192.00,416.00L 128.00,416.00 l0.00-64.00 l 256.00,0.00 L 384.00,416.00 z M 256.00,384.00c-17.687,0.00-32.00,14.328-32.00,32.00
		s 14.313,32.00, 32.00,32.00s 32.00-14.328, 32.00-32.00S 273.687,384.00, 256.00,384.00zM 416.00,416.00l0.00-96.00 L 96.00,320.00 L 96.00,416.00 L 32.00,416.00 l0.00-448.00 l 32.00,0.00 l 32.00,0.00 l 320.00,0.00 l 32.00,0.00 l 32.00,0.00 L 480.00,416.00 L 416.00,416.00 z M 241.156,36.375l-22.625,22.625L 128.00,149.50l 45.25,45.25
		l 67.906-67.875L 370.313,256.00l 45.25-45.25L 241.156,36.375z"  />
<glyph unicode="&#xe039;" d="M 465.691,369.87c-61.735,61.499-161.78,61.499-223.452,0.00c-6.845-6.812-12.937-14.093-18.276-21.78
		c-65.755,9.031-132.954-10.875-182.379-55.717L 0.008,315.841L 47.047,145.877l 164.606,45.124
		c 3.14-6.563, 6.406-13.062, 10.489-19.218L 126.493,76.567l 44.715-44.562L 266.794,127.253
		c 61.358-40.562, 144.823-33.874, 198.897,19.999C 527.426,208.75, 527.426,308.372, 465.691,369.87 M 175.29,216.75
		c 0.126,0.25, 0.252,0.531, 0.377,0.812c 5.841,10.281, 13.252,19.00, 21.165,26.999c 1.444-15.875, 5.275-31.499, 11.493-46.436
		L 175.29,216.75z M 429.642,183.314c-41.764-41.624-109.403-41.624-151.167,0.00c-25.498,25.374-35.233,60.467-29.58,93.372
		c 33.977,11.125, 72.223,8.906, 105.759-10.062c 12.372-7.00, 23.174-15.687, 32.281-25.687
		c-19.281,32.499-47.165,60.561-82.523,80.56c-8.478,4.812-17.333,8.50-26.126,12.124l 0.189,0.25
		c 41.701,41.561, 109.403,41.561, 151.167,0.00C 471.343,292.217, 471.343,224.875, 429.642,183.314"  />
<glyph unicode="&#xe040;" d="M 441.005,462.854L 70.778,462.854 c-39.127,0.00-70.882-31.54-70.882-70.364L-0.103,164.219 
		c0.00-38.824, 31.755-70.364, 70.882-70.364l 170.334,0.00 l0.00-108.844 l 104.299,108.844l 95.593,0.00 c 39.127,0.00, 70.882,31.54, 70.882,70.364
		L 511.886,392.49 C 511.887,431.383, 480.132,462.854, 441.005,462.854z M 448.827,195.897L 58.942,195.897 l0.00,35.182 L 448.827,231.079 L 448.827,195.897 z M 448.827,266.33L 58.942,266.33 
		l0.00,35.182 L 448.827,301.511 L 448.827,266.33 z M 448.827,336.762L 58.942,336.762 l0.00,35.182 L 448.827,371.944 L 448.827,336.762 z"  />
<glyph unicode="&#xe041;" d="M 511.749,391.765C 511.749,438.933, 397.248,474.987, 256.00,474.987S 0.251,442.373, 0.251,395.189c0.00-8.939, 10.853-19.947, 10.853-19.947
		L 201.067,160.144l0.00-77.563 c0.00-40.192, 24.864-85.685, 54.933-101.099c 30.069-15.413, 54.933,4.853, 54.933,45.045L 310.933,159.589 l 193.675,215.653
		C 504.608,375.243, 511.749,384.485, 511.749,391.765z M 256.00,341.867c-110.213,0.00-199.499,20.357-199.499,45.44c0.00,25.099, 89.285,45.44, 199.499,45.44
		c 110.176,0.00, 199.499-20.336, 199.499-45.44C 455.499,362.219, 366.176,341.867, 256.00,341.867z"  />
<glyph unicode="&#xe042;" d="M 476.60,228.656L 413.569,291.578L 413.569,480.00 L 145.913,480.00 L 28.60,366.188L 28.60-32.00 l 384.969,0.00 L 413.569,167.062 L 476.60,228.656z
		 M 169.006,434.703l0.00-92.844 L 74.475,341.859 L 169.006,434.703z M 273.585,103.656l0.00,22.938 l0.00,15.00 l0.00,31.219 L 98.60,172.812 L 98.60,275.203 l 174.985,0.00 L 273.585,316.219 
		l0.00,15.031 l0.00,22.406 L 401.694,228.656L 273.585,103.656z"  />
<glyph unicode="&#xe043;" d="M 512.00,187.733L 512.00,260.267 L 436.416,260.267 c-4.773,23.877-14.171,46.08-27.211,65.653l 53.456,53.456l-51.291,51.291L 357.92,377.205
		c-19.568,13.045-41.776,22.437-65.653,27.211L 292.267,480.00 L 219.733,480.00 l0.00-75.584 c-23.877-4.773-46.085-14.165-65.653-27.211L 100.624,430.661L 49.333,379.376L 102.795,325.92
		c-13.045-19.568-22.437-41.776-27.211-65.653L0.00,260.267 l0.00-72.533 l 75.584,0.00 c 4.773-23.877, 14.171-46.085, 27.211-65.653L 49.339,68.624l 51.291-51.291L 154.08,70.795
		c 19.568-13.045, 41.776-22.437, 65.653-27.211L 219.733-32.00 l 72.533,0.00 L 292.267,43.584 c 23.877,4.773, 46.085,14.171, 65.653,27.211l 53.456-53.456l 51.291,51.291L 409.205,122.08
		c 13.045,19.568, 22.437,41.776, 27.211,65.653L 512.00,187.733 z M 256.00,132.80c-50.368,0.00-91.20,40.832-91.20,91.20c0.00,50.368, 40.832,91.20, 91.20,91.20s 91.20-40.832, 91.20-91.20
		C 347.20,173.632, 306.368,132.80, 256.00,132.80z"  />
<glyph unicode="&#xe044;" d="M 480.00,480.00L0.00,480.00 l0.00-128.00 l0.00-384.00 l 512.00,0.00 L 512.00,480.00 L 480.00,480.00 z M 192.00,416.00l 32.00,0.00 l0.00-32.00 l-32.00,0.00 L 192.00,416.00 z M 128.00,416.00l 32.00,0.00 l0.00-32.00 l-32.00,0.00 L 128.00,416.00 z M 64.00,416.00l 32.00,0.00 l0.00-32.00 l-32.00,0.00 L 64.00,416.00 z M 448.00,32.00L 64.00,32.00 L 64.00,352.00 
		l 384.00,0.00 L 448.00,32.00 zM 192.00,288.00L 416.00,288.00L 416.00,256.00L 192.00,256.00zM 104.00,288.00L 152.00,288.00L 152.00,256.00L 104.00,256.00zM 192.00,224.00L 416.00,224.00L 416.00,192.00L 192.00,192.00zM 104.00,224.00L 152.00,224.00L 152.00,192.00L 104.00,192.00zM 192.00,160.00L 416.00,160.00L 416.00,128.00L 192.00,128.00zM 104.00,160.00L 152.00,160.00L 152.00,128.00L 104.00,128.00z"  />
<glyph unicode="&#xe045;" d="M 378.581,445.158c0.00,0.00-85.343-40.778-170.684-11.155C 114.914,466.374, 73.024,453.361, 33.274,404.897
		c-6.797,3.859-15.344,4.265-22.516-0.109C 0.291,398.35-3.006,384.556, 3.447,374.166L 229.787,6.925
		c 4.203-6.843, 11.484-10.593, 18.938-10.593c 3.969,0.00, 8.00,1.094, 11.672,3.281c 10.469,6.437, 13.719,20.217, 7.266,30.654
		L 167.006,193.638c 39.687,48.261, 81.562,61.29, 174.451,28.997c 85.342-29.70, 170.684,11.077, 170.684,11.077L 378.581,445.158z"  />
<glyph unicode="&#xe046;" d="M 442.677,229.339l-42.512,0.00 l0.00,129.973 C 400.165,425.643, 336.256,480.00, 256.00,480.00C 175.776,480.00, 111.835,425.643, 111.835,359.312l0.00-129.973 
		l-42.464,0.00 c-12.907,0.00-22.437-8.336-22.437-19.013l0.00-223.403 c0.00-10.736, 9.531-18.917, 22.437-18.917l 373.301,0.00 c 12.987,0.00, 22.389,8.181, 22.389,18.917L 465.061,210.325 
		C 465.067,220.997, 455.664,229.339, 442.677,229.339z M 174.357,350.816c0.00,49.461, 50.32,74.224, 81.643,74.224c 40.176,0.00, 83.429-26.501, 83.429-68.037
		l0.00-127.669 L 173.504,229.333 L 174.357,350.816z"  />
<glyph unicode="&#xe047;" d="M 511.867,265.163c0.00-118.549-96.155-214.704-214.72-214.704c-43.765,0.00-84.421,13.157-118.357,35.659L 60.992-32.133
		c0.00,0.00-52.389,18.123-61.125,61.312c 11.157,11.125, 87.328,87.595, 117.877,118.251c-22.251,33.813-35.28,74.251-35.28,117.733
		c0.00,118.56, 96.123,214.704, 214.688,214.704S 511.867,383.728, 511.867,265.163z M 297.147,397.291c-72.955,0.00-132.123-59.157-132.123-132.123
		c0.00-72.987, 59.173-132.139, 132.123-132.139c 72.971,0.00, 132.123,59.157, 132.123,132.139C 429.275,338.133, 370.117,397.291, 297.147,397.291z"  />
<glyph unicode="&#xe048;" d="M 68.267,411.733l0.00-375.467 l 375.467,0.00 L 443.733,411.733 L 68.267,411.733 z M 238.79,207.183l0.00,34.027 l 34.027,0.00 l0.00-34.027 L 238.79,207.183 z M 272.817,173.156l0.00-34.417 l-34.027,0.00 l0.00,34.417 L 272.817,173.156 z M 238.79,275.236l0.00,34.417 l 34.027,0.00 l0.00-34.417 L 238.79,275.236 z M 204.764,275.236l-34.027,0.00 
	l0.00,34.417 l 34.027,0.00 L 204.764,275.236 z M 204.764,241.21l0.00-34.027 l-34.027,0.00 l0.00,34.027 L 204.764,241.21 z M 136.32,207.183L 102.293,207.183 l0.00,34.027 l 34.027,0.00 L 136.32,207.183 z M 136.32,173.156l0.00-34.417 L 102.293,138.737 l0.00,34.417 L 136.32,173.156 z M 170.737,173.156l 34.027,0.00 l0.00-34.417 l-34.027,0.00 L 170.737,173.156 z M 204.764,104.71l0.00-34.027 l-34.027,0.00 
	l0.00,34.027 L 204.764,104.71 z M 238.79,104.71l 34.027,0.00 l0.00-34.027 l-34.027,0.00 L 238.79,104.71 z M 307.236,104.71l 34.027,0.00 l0.00-34.027 l-34.027,0.00 L 307.236,104.71 z M 307.236,138.737l0.00,34.417 l 34.027,0.00 l0.00-34.417 L 307.236,138.737 z M 375.29,173.156l 34.417,0.00 l0.00-34.417 l-34.417,0.00 L 375.29,173.156 z M 375.29,207.183l0.00,34.027 l 34.417,0.00 l0.00-34.027 
	L 375.29,207.183 z M 341.263,207.183l-34.027,0.00 l0.00,34.027 l 34.027,0.00 L 341.263,207.183 z M 307.236,275.236l0.00,34.417 l 34.027,0.00 l0.00-34.417 L 307.236,275.236 z M 136.32,309.653l0.00-34.417 L 102.293,275.236 l0.00,34.417 L 136.32,309.653 z M 102.293,104.71l 34.027,0.00 l0.00-34.027 L 102.293,70.684 L 102.293,104.71 z M 375.29,70.684l0.00,34.027 l 34.417,0.00 l0.00-34.027 L 375.29,70.684 z
	 M 409.707,275.236l-34.417,0.00 l0.00,34.417 l 34.417,0.00 L 409.707,275.236 z"  />
<glyph unicode="&#xe049;" d="M 443.733,343.467l-34.133,0.00 L 409.60,377.60 l-102.40,102.40L 68.608,480.00 l0.00-136.533 l-58.027,0.00 c-14.336,0.00-9.899,3.755-9.899-10.581l0.00-228.352 l0.00-34.475l 68.267,0.00 l0.00-102.40 L 409.60-32.341 l0.00,102.40 l 68.267,0.00 l0.00,34.475 L 477.867,343.467  M 307.541,445.867l 68.267-68.267l-68.267,0.00 
		L 307.541,445.867 z M 102.741,343.467L 102.741,445.867 l 170.325,0.00 l0.00-102.40 l 102.40,0.00 l0.00-102.40 L 102.741,241.067 L 102.741,343.467 z M 409.60,104.533l-34.133,0.00 l0.00-102.40 L 102.741,2.133 l0.00,102.40 l-34.133,0.00 l0.00,34.133 L 409.60,138.667 L 409.60,104.533 z M 239.275,377.60l-136.533,0.00 l0.00-34.133 l 136.533,0.00 L 239.275,377.60 z M 102.741,275.20L 341.333,275.20 L 341.333,309.333 L 102.741,309.333 L 102.741,275.20 z" horiz-adv-x="477.8666666666667"  />
<glyph unicode="&#xe050;" d="M 263.875,183.858c 17.625,0.00, 31.938,14.313, 31.938,32.015c0.00,17.672-14.313,31.985-31.938,31.985
		c-17.687,0.00-32.062-14.313-32.062-31.985C 231.812,198.171, 246.188,183.858, 263.875,183.858zM 332.375,153.296L 304.00,182.358c0.00,0.00-39.313-14.625-52.25-37.031c-20.687,11.219-31.875,0.00-31.875,0.00L 192.00,111.733l 224.00,0.00 L 416.00,192.983 
		l-35.437,64.344L 332.375,153.296zM 448.00,335.733l0.00,32.00 l0.00,32.00 l0.00,32.00 L 64.00,431.733 L0.00,431.733 l0.00-64.00 l0.00-160.00 l0.00-32.00 l0.00-32.00 l 96.00,0.00 l0.00-128.00 l 416.00,0.00 l0.00,320.00 L 448.00,335.733 z M 96.00,207.733l-32.00,0.00 l0.00,160.00 l 320.00,0.00 l0.00-32.00 L 96.00,335.733 L 96.00,207.733 z M 448.00,79.733L 160.00,79.733 
		l0.00,192.00 l 224.00,0.00 l 64.00,0.00 L 448.00,79.733 z"  />
<glyph unicode="&#xe051;" d="M 512.00,10.56C 512.00-12.80, 492.80-32.00, 469.44-32.00L 256.64-32.00 c-23.36,0.00-42.56,19.20-42.56,42.56L 214.08,237.76 c0.00,23.36, 19.20,42.56, 42.56,42.56
					l 212.80,0.00 c 23.36,0.00, 42.56-19.20, 42.56-42.56L 512.00,10.56 zM 106.24,167.68c 23.36,0.00, 42.56,19.20, 42.56,42.56L 148.80,281.28 c0.00,23.36, 19.20,42.56, 42.56,42.56l 63.68,0.00 c 23.36,0.00, 42.56,19.20, 42.56,42.56
					L 297.60,437.44 C 297.92,460.80, 278.72,480.00, 255.36,480.00L 42.56,480.00 C 19.20,480.00,0.00,460.80,0.00,437.44l0.00-226.88 c0.00-23.36, 19.20-42.56, 42.56-42.56L 106.24,168.00 z"  />
<glyph unicode="&#xe052;" d="M 422.10,0.00L 136.644,223.99L 422.10,448.00 zM 89.366,448.00L 162.633,448.00L 162.633,0.00L 89.366,0.00z"  />
<glyph unicode="&#xe053;" d="M 398.80,0.00L 113.20,223.99L 398.80,448.00 z"  />
<glyph unicode="&#xe054;" d="M 113.20,0.00L 398.80,223.99L 113.20,448.00 z"  />
<glyph unicode="&#xe055;" d="M 348.834,448.00L 348.834,244.386L 89.366,448.00L 89.366,0.00L 348.834,203.597L 348.834,0.00L 422.10,0.00L 422.10,448.00 z"  />
<glyph unicode="&#xe056;" d="M 256.00,480.00C 114.624,480.00,0.00,365.376,0.00,224.00s 114.624-256.00, 256.00-256.00s 256.00,114.624, 256.00,256.00S 397.376,480.00, 256.00,480.00L 256.00,480.00z M 416.00,225.60l-45.248-45.248L 257.60,67.232l-45.248,45.248
	l 81.152,81.152L 85.952,193.632 L 85.92,257.568L 293.504,257.60L 212.352,338.752L 257.60,384.00L 416.00,225.60z"  />
<glyph unicode="&#xe057;" d="M 256.032,448.00C 379.488,448.00, 480.00,347.488, 480.00,223.968C 480.00,100.512, 379.488,0.00, 256.032,0.00C 132.512,0.00, 32.00,100.512, 32.00,223.968
		C 32.00,347.488, 132.512,448.00, 256.032,448.00 M 256.032,480.00C 114.592,480.00,0.00,365.408,0.00,223.968C0.00,82.592, 114.592-32.00, 256.032-32.00C 397.376-32.00, 512.00,82.592, 512.00,223.968
		C 512.00,365.408, 397.376,480.00, 256.032,480.00L 256.032,480.00z"  />
<glyph unicode="&#xe058;" d="M-1.317,477.712c0.00-0.293, 0.227-0.388, 0.46-0.211L 1.87,479.552C 2.103,479.729, 2.112,480.019, 1.878,480.195l-2.739,2.045
			c-0.234,0.177-0.456,0.081-0.456-0.212L-1.317,477.712 zM 4.267,480.001C 4.267,482.357, 2.356,484.267,0.00,484.267c-2.357,0.00-4.267-1.91-4.267-4.266
		C-4.267,477.643-2.357,475.733,0.00,475.733C 2.356,475.733, 4.267,477.643, 4.267,480.001M 180.00,346.39c0.00,17.188, 12.906,22.75, 26.281,12.375L 361.75,238.656
	c 13.344-10.375, 13.844-27.328, 0.469-37.687l-156.188-119.781c-13.313-10.313-26.031-4.75-26.031,12.437L 179.999,346.39 z M 256.00,480.00
	C 114.625,480.00,0.00,365.39,0.00,224.00c0.00-141.375, 114.625-256.00, 256.00-256.00c 141.406,0.00, 256.00,114.625, 256.00,256.00C 512.00,365.39, 397.406,480.00, 256.00,480.00z"  />
<glyph unicode="&#xe059;" d="M 256.00,448.00c 123.50,0.00, 224.00-100.484, 224.00-224.00c0.00-123.50-100.50-224.00-224.00-224.00C 132.484,0.00, 32.00,100.50, 32.00,224.00
			C 32.00,347.516, 132.484,448.00, 256.00,448.00 M 256.00,480.00C 114.625,480.00,0.00,365.375,0.00,224.00s 114.625-256.00, 256.00-256.00c 141.406,0.00, 256.00,114.625, 256.00,256.00
			S 397.406,480.00, 256.00,480.00L 256.00,480.00zM 180.00,346.406c0.00,17.172, 12.891,22.75, 26.266,12.375l 155.484-120.094
					c 13.313-10.375, 13.812-27.328, 0.437-37.687l-156.172-119.781c-13.313-10.313-26.015-4.719-26.015,12.437L 179.999,346.406 L 180.00,346.406z"  />
<glyph unicode="&#xe060;" d="M 256.00,448.00c 123.50,0.00, 224.00-100.484, 224.00-224.00c0.00-123.50-100.50-224.00-224.00-224.00C 132.484,0.00, 32.00,100.50, 32.00,224.00
		C 32.00,347.516, 132.484,448.00, 256.00,448.00 M 256.00,480.00C 114.625,480.00,0.00,365.375,0.00,224.00s 114.625-256.00, 256.00-256.00c 141.406,0.00, 256.00,114.625, 256.00,256.00
		S 397.406,480.00, 256.00,480.00L 256.00,480.00zM 422.179,303.918c-1.28,3.20-5.761,9.92-9.921,14.40l-9.279,10.24c-4.161,4.48-10.24,9.28-13.44,10.56
	s-13.44-6.08-17.60-10.56l-171.84-184.32c-4.16-4.48-11.20-4.48-15.68,0.00l-61.76,65.60c-4.16,4.80-10.24,9.60-13.44,10.879c-3.20,1.28-13.44-6.079-17.60-10.879
	l-9.60-9.921c-4.16-4.80-8.64-11.20-9.92-14.72c-1.28-3.20, 5.76-14.40, 9.92-18.88l 94.72-101.439c 4.16-4.48, 10.24-9.28, 13.44-10.561
	c 3.20-1.279, 13.439,6.08, 17.92,10.561l 9.28,10.239c 4.16,4.48, 8.00,8.961, 8.639,9.28c 0.321,0.64, 4.80,5.76, 8.961,10.56l 177.279,190.081
	C 416.419,289.518, 423.139,300.718, 422.179,303.918"  />
<glyph unicode="&#x20;" horiz-adv-x="256" />
<glyph class="hidden" unicode="&#xf000;" d="M0,480L 512 -32L0 -32 z" horiz-adv-x="0" />
</font>
</defs>
</svg>
